Pandem Kodi 2 (2018) 720p Telugu (HQ Lin Torrent Free Download

Seeders : 409   &   Leechers : 846      01-01-2019 (3 weeks)
Pandem Kodi 2 (2018) 720p Telugu (HQ Lin Torrent Download
Added: ago by shmasti ***** in Movies   1.4 GB   Hits : 40
Info Hash: 47DA2DDF2FADEF57A184A8EAB05C4F8412EA8E36 Download
Pandem Kodi 2 (2018) 720p Telugu (HQ Lin Torrent Download

Anonymous and Direct Download movies , software , shows...

Fast Safe Anonymous
movies, software, shows...

Torrent Description





General
Complete name : Pandem Kodi 2 (2018) 720p Telugu (HQ Line) HDRip x264 Mp3 ESub by india4movies.mkv
Format : Matroska
Format version : Version 4 / Version 2
File size : 1.37 GiB
Duration : 2 h 33 min
Overall bit rate mode : Variable
Overall bit rate : 1 274 kb/s
Movie name : www.india4movies.cc
Encoded date : UTC 2019-01-01 09:14:37
Writing application : mkvmerge v8.1.0 ('Psychedelic Postcard') 64bit
Writing library : libebml v1.3.1 + libmatroska v1.4.2

Video
ID : 1
Format : AVC
Format/Info : Advanced Video Codec
Format profile : [email protected]
Format settings, CABAC : Yes
Format settings, RefFrames : 4 frames
Codec ID : V_MPEG4/ISO/AVC
Duration : 2 h 33 min
Bit rate : 1 178 kb/s
Width : 1 280 pixels
Height : 544 pixels
Display aspect ratio : 2.35:1
Frame rate mode : Constant
Frame rate : 24.000 FPS
Color space : YUV
Chroma subsampling : 4:2:0
Bit depth : 8 bits
Scan type : Progressive
Bits/(Pixel*Frame) : 0.070
Stream size : 1.26 GiB (92%)
Writing library : x264 core 155 r2901 7d0ff22
Default : Yes
Forced : No
Color range : Limited
Color primaries : BT.601 NTSC
Transfer characteristics : BT.709
Matrix coefficients : BT.601

Audio
ID : 2
Format : MPEG Audio
Format version : Version 1
Format profile : Layer 3
Mode : Joint stereo
Mode extension : MS Stereo
Codec ID : A_MPEG/L3
Codec ID/Hint : MP3
Duration : 2 h 33 min
Bit rate mode : Variable
Bit rate : 96.0 kb/s
Channel(s) : 2 channels
Sampling rate : 44.1 kHz
Frame rate : 38.281 FPS (1152 SPF)
Compression mode : Lossy
Delay relative to video : -106 ms
Stream size : 106 MiB (8%)
Writing library : LAME3.99r
Encoding settings : -m j -V 4 -q 3 -lowpass 15.1 --abr 96
Language : Telugu
Default : Yes
Forced : No

Screen Shoots




Sharing Widget


No Comments For This Torrent . Be The First to Comment

You must Login to Comment . Click Here to Login

Menu 1

Some content in menu 1.

Pandem Kodi 2 (2018) 720p Telugu (HQ Line) HDRip x264 Mp3 ESub by indi (Size: 1.4 GB)
  Pandem Kodi 2 (2018) 720p Telugu (HQ Line) HDRip x264 Mp3 ESub by indi 1.4 GB
tracker name
udp://tracker.leechers-paradise.org:6969/announce
udp://zer0day.ch:1337/announce
udp://open.demonii.com:1337/announce
udp://tracker.coppersurfer.tk:6969/announce
udp://exodus.desync.com:6969/announce
µTorrent compatible trackers list

Relative Torrents

Torrent Name Size Age SEED LEECH
Aquaman 2018 HC HDRip x264 AC3-ETRG
Posted by    ETRG   in   Movies
1.2 GB 2 minutes 402 327
Lara Croft - Tomb Raider (2001) 1080p 10it Bluray x265 HEVC [Org DD 5 1 Hindi +
Posted by    McuDudeS   in   Movies
3.3 GB 2 minutes 292 498
Aquamen 2018 720p HC HDRip x264-Fluxy7
Posted by    Fluxy7   in   Movies
1.2 GB 5 minutes 652 837
Mike Posner - A Real Good Kid (2019) fla 698 Kbps
Posted by    freemusicdl   in   Music
192.4 MB 8 minutes 315 118
Seth Meyers 2019 01 23 Anne Hathaway WEBx264-TBS [eztv]
Posted by    EZTVag   in   TV
580.3 MB 8 minutes 571 367
Star Music HD | Four Lions | Plextone (12)